Modern Talking - Greatest Hits 2CD [2008, Disco, Pop, FLAC] скачать без смс и регистрации

Размер: 1.11 ГБ | Раздают: 40 | Качают: 334 | визитов: 128 | Лайки: 0 |

Торренты

Modern Talking - Greatest Hits (2CD)
Формат: FLAC, (image + .cue), lossless
Год выпуска: 2008
Страна: Germany
Жанр: Disco,Pop
Продолжительность: 02:39:48
Описание:

Трэклист:

01. You're My Heart, You're My Soul [0:05:36.12]
02. Cheri Cheri Lady [0:03:51.32]
03. You Can Win If You Want [0:03:53.00]
04. Brother Louie [0:03:44.25]
05. Geronimo's Cadillac [0:03:17.05]
06. Atlantis Is Calling (S.O.S. For Love) [0:03:52.25]
07. With A Little Love [0:03:38.40]
08. Do You Wanna [0:04:25.70]
09. Doctor For My Heart [0:03:22.00]
10. Jet Airliner [0:04:21.27]
11. Save Me - Don't Break Me [0:03:48.50]
12. Just Like An Angel [0:03:19.65]
13. Sweet Little Sheila [0:03:03.33]
14. Angie's Heart [0:03:41.25]
15. Diamonds Never Made A Lady [0:04:08.50]
16. You're The Lady Of My Heart [0:03:23.68]
17. The Angels Sing In New York City [0:03:33.40]
18. Romantic Warriors [0:03:57.56]
19. In 100 Years [0:03:54.03]
20. No. 1 Hit Medley [0:07:03.54]


01. You're My Heart, You're My Soul [New Version] [0:03:19.50]
02. Brother Louie [New Version] [0:04:14.48]
03. Cheri Cheri Lady [New Version] [0:04:25.01]
04. I Will Follow You [0:04:03.61]
05. We Take The Chance [0:04:09.00]
06. Space Mix '98: Cheri Cheri Lady\Brother Louie\You Can Win If You Want [0:04:34.11]
07. You Are Not Alone [0:03:24.55]
08. Sexy Sexy Lover (Feat Eric Singleton) [0:05:01.41]
09. China In Her Eyes [0:03:11.44]
10. Donґt Take Away My Heart (Feat Eric Singleton) [0:03:27.13]
11. Fly To The Moon (Feat.Eric Singleton) [0:03:08.40]
12. Win The Race [0:03:38.10]
13. Last Exit To Brooklyn [0:03:18.01]
14. Ready For The Victory [0:03:34.50]
15. Juliet [0:03:41.15]
16. Down On My Knees [0:03:41.34]
17. TV Makes The Superstar [0:03:48.69]
18. Cinderella Girl [0:03:37.20]
19. No Face No Name No Number [0:04:01.68]
20. Witchqueen Of Eldorado [0:03:58.50]
21. I'm Gonna Be Strong [0:03:31.25]


[b]Доп. информация: [/b]

Exact Audio Copy V0.99 prebeta 5 from 4. May 2009

Отчёт EAC об извлечении, выполненном 9. мая 2012, 22:16

Modern Talking / Greatest Hits CD1

Дисковод: TOSHIBA ODD-DVD SD-M1802 Adapter: 1 ID: 0

Режим чтения : Достоверность
Использование точного потока : Да
Отключение кэша аудио : Нет
Использование указателей C2 : Да

Коррекция смещения при чтении : 691
Способность читать области Lead-in и Lead-out : Нет
Заполнение пропущенных сэмплов тишиной : Да
Удаление блоков с тишиной в начале и конце : Нет
При вычислениях CRC использовались нулевые сэмплы : Нет
Интерфейс : Установленный внешний ASPI-интерфейс

Выходной формат : Внутренние WAV-операции
Формат сэмплов : 44.100 Гц; 16 бит; стерео

TOC извлечённого CD

Трек | Старт | Длительность | Начальный сектор | Конечный сектор
---------------------------------------------------------------------
1 | 0:00.00 | 5:36.12 | 0 | 25211
2 | 5:36.12 | 3:51.32 | 25212 | 42568
3 | 9:27.44 | 3:53.00 | 42569 | 60043
4 | 13:20.44 | 3:44.25 | 60044 | 76868
5 | 17:04.69 | 3:17.05 | 76869 | 91648
6 | 20:21.74 | 3:52.25 | 91649 | 109073
7 | 24:14.24 | 3:38.40 | 109074 | 125463
8 | 27:52.64 | 4:25.70 | 125464 | 145408
9 | 32:18.59 | 3:22.00 | 145409 | 160558
10 | 35:40.59 | 4:21.27 | 160559 | 180160
11 | 40:02.11 | 3:48.50 | 180161 | 197310
12 | 43:50.61 | 3:19.65 | 197311 | 212300
13 | 47:10.51 | 3:03.33 | 212301 | 226058
14 | 50:14.09 | 3:41.25 | 226059 | 242658
15 | 53:55.34 | 4:08.50 | 242659 | 261308
16 | 58:04.09 | 3:23.68 | 261309 | 276601
17 | 61:28.02 | 3:33.40 | 276602 | 292616
18 | 65:01.42 | 3:57.56 | 292617 | 310447
19 | 68:59.23 | 3:54.03 | 310448 | 328000
20 | 72:53.26 | 7:03.54 | 328001 | 359779

Характеристики диапазона извлечения и сообщения об ошибках

Выбранный диапазон

Имя файла C:\Documents and Settings\Admin\Рабочий стол\Новая папка\Modern Talking - Greatest Hits CD1.wav

Пиковый уровень 100.0 %
Качество диапазона 100.0 %
CRC теста B138F7F9
CRC копии B138F7F9
Копирование... OK

Ошибок не произошло

AccurateRip: сводка

Трек 1 точное извлечение (доверие 1) [03C9C263]
Трек 2 точное извлечение (доверие 1) [17929273]
Трек 3 точное извлечение (доверие 1) [0DC3EADD]
Трек 4 точное извлечение (доверие 1) [A780E985]
Трек 5 точное извлечение (доверие 1) [33C681CB]
Трек 6 точное извлечение (доверие 1) [B009F86A]
Трек 7 точное извлечение (доверие 1) [FFE20998]
Трек 8 точное извлечение (доверие 1) [867E9C0B]
Трек 9 точное извлечение (доверие 1) [E234F581]
Трек 10 точное извлечение (доверие 1) [C4B18091]
Трек 11 точное извлечение (доверие 1) [07A20061]
Трек 12 точное извлечение (доверие 1) [60C79FF6]
Трек 13 точное извлечение (доверие 1) [D7930D2E]
Трек 14 точное извлечение (доверие 1) [B6869892]
Трек 15 точное извлечение (доверие 1) [3D0490B3]
Трек 16 точное извлечение (доверие 1) [14478D0B]
Трек 17 точное извлечение (доверие 1) [B56C32A3]
Трек 18 точное извлечение (доверие 1) [E714174B]
Трек 19 точное извлечение (доверие 1) [5C11E27A]
Трек 20 точное извлечение (доверие 1) [255A52B1]

Все треки извлечены точно

Конец отчёта
Exact Audio Copy V0.99 prebeta 5 from 4. May 2009

Отчёт EAC об извлечении, выполненном 9. мая 2012, 22:29

Modern Talking / Greatest Hits CD2

Дисковод: TOSHIBA ODD-DVD SD-M1802 Adapter: 1 ID: 0

Режим чтения : Достоверность
Использование точного потока : Да
Отключение кэша аудио : Нет
Использование указателей C2 : Да

Коррекция смещения при чтении : 691
Способность читать области Lead-in и Lead-out : Нет
Заполнение пропущенных сэмплов тишиной : Да
Удаление блоков с тишиной в начале и конце : Нет
При вычислениях CRC использовались нулевые сэмплы : Нет
Интерфейс : Установленный внешний ASPI-интерфейс

Выходной формат : Внутренние WAV-операции
Формат сэмплов : 44.100 Гц; 16 бит; стерео

TOC извлечённого CD

Трек | Старт | Длительность | Начальный сектор | Конечный сектор
---------------------------------------------------------------------
1 | 0:00.00 | 3:19.50 | 0 | 14974
2 | 3:19.50 | 4:14.48 | 14975 | 34072
3 | 7:34.23 | 4:25.01 | 34073 | 53948
4 | 11:59.24 | 4:03.61 | 53949 | 72234
5 | 16:03.10 | 4:09.00 | 72235 | 90909
6 | 20:12.10 | 4:34.11 | 90910 | 111470
7 | 24:46.21 | 3:24.55 | 111471 | 126825
8 | 28:11.01 | 5:01.41 | 126826 | 149441
9 | 33:12.42 | 3:11.44 | 149442 | 163810
10 | 36:24.11 | 3:27.13 | 163811 | 179348
11 | 39:51.24 | 3:08.40 | 179349 | 193488
12 | 42:59.64 | 3:38.10 | 193489 | 209848
13 | 46:37.74 | 3:18.01 | 209849 | 224699
14 | 49:56.00 | 3:34.50 | 224700 | 240799
15 | 53:30.50 | 3:41.15 | 240800 | 257389
16 | 57:11.65 | 3:41.34 | 257390 | 273998
17 | 60:53.24 | 3:48.69 | 273999 | 291167
18 | 64:42.18 | 3:37.20 | 291168 | 307462
19 | 68:19.38 | 4:01.68 | 307463 | 325605
20 | 72:21.31 | 3:58.50 | 325606 | 343505
21 | 76:20.06 | 3:31.25 | 343506 | 359355

Характеристики диапазона извлечения и сообщения об ошибках

Выбранный диапазон

Имя файла C:\Documents and Settings\Admin\Рабочий стол\Новая папка\Modern Talking - Greatest Hits CD2.wav

Пиковый уровень 81.9 %
Качество диапазона 100.0 %
CRC теста DD12CBAA
CRC копии DD12CBAA
Копирование... OK

Ошибок не произошло

AccurateRip: сводка

Трек 1 точное извлечение (доверие 1) [BAC438AD]
Трек 2 точное извлечение (доверие 1) [5E05EA1D]
Трек 3 точное извлечение (доверие 1) [229CD3A3]
Трек 4 точное извлечение (доверие 1) [2DDD6417]
Трек 5 точное извлечение (доверие 1) [00CDEB59]
Трек 6 точное извлечение (доверие 1) [BA113CA8]
Трек 7 точное извлечение (доверие 1) [31C308FE]
Трек 8 точное извлечение (доверие 1) [7740D960]
Трек 9 точное извлечение (доверие 1) [C95477E5]
Трек 10 точное извлечение (доверие 1) [11FBB460]
Трек 11 точное извлечение (доверие 1) [21C2279D]
Трек 12 точное извлечение (доверие 1) [DC3D9D14]
Трек 13 точное извлечение (доверие 1) [02D4CE1B]
Трек 14 точное извлечение (доверие 1) [4BD48FE8]
Трек 15 точное извлечение (доверие 1) [61B07C02]
Трек 16 точное извлечение (доверие 1) [99F614AD]
Трек 17 точное извлечение (доверие 1) [C8B9DD4D]
Трек 18 точное извлечение (доверие 1) [C285CF99]
Трек 19 точное извлечение (доверие 1) [57697DC1]
Трек 20 точное извлечение (доверие 1) [8D7B89B2]
Трек 21 точное извлечение (доверие 1) [AD897C90]

Все треки извлечены точно

Конец отчёта


Релиз группы:

Теги: modern, martina, modern martina
Жалоба Modern Talking - Greatest Hits (2CD) [2008, Disco, Pop, FLAC]

Наша рекомендация